<?xml version="1.0" standalone="no"?>
<!DOCTYPE svg PUBLIC "-//W3C//DTD SVG 1.1//EN" "http://www.w3.org/Graphics/SVG/1.1/DTD/svg11.dtd">
<svg xmlns="http://www.w3.org/2000/svg">
<defs >
<font id="MerriweatherSans" horiz-adv-x="1305" ><font-face
    font-family="Merriweather Sans"
    units-per-em="2048"
    panose-1="0 0 8 0 0 0 0 0 0 0"
    ascent="2014"
    descent="-560"
    alphabetic="0" />
<glyph unicode=" " glyph-name="space" horiz-adv-x="669" />
<glyph unicode="!" glyph-name="exclam" horiz-adv-x="641" d="M498 1780L464 555H197L151 1780H498ZM126 230T154 278T228 354T329 383Q386 383 428 358T493 288T515 189Q515 133 488 85T414 7T312 -22Q259 -22 217 4T150 75T126 175Q126 230 154 278Z" />
<glyph unicode="&quot;" glyph-name="quotedbl" horiz-adv-x="1245" d="M521 1685L485 966H254L216 1685H521ZM1029 1685L993 966H762L724 1685H1029Z" />
<glyph unicode="#" glyph-name="numbersign" horiz-adv-x="1645" d="M1226 856L1196 536H1405V326H1176L1145 0H891L921 326H641L610 0H352L383 326H196V536H402L432 856H234V1058H451L481 1373H742L712 1058H987L1016 1373H1275L1245 1058H1449V856H1226ZM969
856H692L662 536H940L969 856Z" />
<glyph unicode="$" glyph-name="dollar" horiz-adv-x="1410" d="M1216 282T1159 191T998 48T754 -14L749 -225H565L571 -10Q462 1 368 26T236 74L281 329Q354 289 457 261T673 233Q796 233 846 270T896 388Q896 442 871 479T787 555T601 655Q433 738 328 849T223
1128Q223 1306 329 1404T616 1529L623 1763H806L800 1537Q915 1532 1008 1506T1147 1450L1095 1203Q1027 1246 947 1273T763 1300Q642 1300 589 1260T535 1144Q535 1091 561 1053T640 981T798 890Q942 814 1027 754T1164 609T1216 408Q1216 282 1159 191Z" />
<glyph unicode="%" glyph-name="percent" horiz-adv-x="2188" d="M1514 1530L921 0H675L1267 1530H1514ZM103 1211T163 1313T322 1469T537 1523Q668 1523 755 1465T884 1306T926 1078Q926 938 866 836T708 681T494 627Q367 627 279 686T147 845T103 1071Q103 1211
163 1313ZM677 1188T635 1257T516 1327Q437 1327 395 1262T352 1080Q352 965 394 895T512 824Q591 824 634 889T677 1070Q677 1188 635 1257ZM1261 597T1321 699T1480 855T1696 909Q1827 909 1914 851T2043 692T2085 464Q2085 324 2025 222T1867 66T1654 12Q1527
12 1438 71T1305 230T1261 456Q1261 597 1321 699ZM1835 573T1793 643T1675 713Q1596 713 1553 648T1510 466Q1510 351 1553 281T1671 210Q1750 210 1792 275T1835 456Q1835 573 1793 643Z" />
<glyph unicode="&amp;" glyph-name="ampersand" horiz-adv-x="1542" d="M1308 189T1354 179T1466 166V-1Q1406 -16 1323 -16Q1236 -16 1169 2T1044 57Q969 24 890 4T735 -16Q415 -16 252 91T88 399Q88 527 172 624T399 789Q331 881 294 967T256 1168Q256 1285
310 1370T465 1501T699 1546Q823 1546 917 1497T1062 1365T1113 1182Q1113 1061 1075 975T967 829T792 714Q850 639 930 544T1078 377Q1113 416 1131 468T1150 577Q1150 625 1145 660T1131 736L1126 757H1384Q1404 674 1404 576Q1404 348 1267 213Q1308 189 1354
179ZM625 1337T580 1293T535 1173Q535 1120 548 1080T583 1004T662 891Q757 940 806 1008T855 1179Q855 1215 839 1251T788 1312T700 1337Q625 1337 580 1293ZM778 217T845 233Q767 318 681 421T529 610Q457 572 420 525T383 416Q383 320 454 269T688 217Q778 217
845 233Z" />
<glyph unicode="&apos;" glyph-name="quotesingle" horiz-adv-x="737" d="M521 1685L485 966H254L216 1685H521Z" />
<glyph unicode="(" glyph-name="parenleft" horiz-adv-x="835" d="M130 996T215 1220T411 1583T599 1767L780 1651Q723 1609 636 1486T478 1162T407 707Q407 441 473 241T625 -77T780 -244L599 -360Q524 -315 417 -189T220 168T130 717Q130 996 215 1220Z" />
<glyph unicode=")" glyph-name="parenright" horiz-adv-x="835" d="M695 428T610 204T414 -159T226 -343L45 -227Q102 -185 189 -62T347 262T418 717Q418 983 352 1183T200 1501T45 1668L226 1784Q301 1739 408 1613T605 1256T695 707Q695 428 610 204Z" />
<glyph unicode="*" glyph-name="asterisk" horiz-adv-x="1348" d="M623 1080L488 942L253 776L136 983L388 1118L569 1171Q563 1174 490 1192Q405 1212 387 1219L130 1347L240 1555L483 1391L620 1261Q619 1268 612 1294T601 1335Q576 1424 574 1443L548 1736H784L767
1448L724 1264Q731 1270 779 1320Q843 1387 857 1398L1099 1564L1211 1358L958 1227L777 1172L960 1123L1218 1000L1099 786L866 948L725 1078Q727 1069 744 1006Q768 920 772 896L799 603L563 602L580 895L623 1080Z" />
<glyph unicode="+" glyph-name="plus" horiz-adv-x="1403" d="M584 662L422 656H213V893H422L584 886L578 1073V1290H824V1073L817 886L968 893H1190V656H968L817 662L824 474V260H578V474L584 662Z" />
<glyph unicode="," glyph-name="comma" horiz-adv-x="693" d="M203 -366T227 -328T265 -239T280 -136Q280 -91 262 -43T216 39T163 73V160L385 296Q444 274 485 222T548 104T569 -22Q569 -133 531 -234T427 -407T282 -506L176 -408V-382Q203 -366 227 -328Z" />
<glyph unicode="-" glyph-name="hyphen" horiz-adv-x="1360" d="M1105 889V644H255V889H1105Z" />
<glyph unicode="." glyph-name="period" horiz-adv-x="641" d="M126 228T154 276T229 354T330 383Q387 383 429 358T493 287T515 187Q515 131 488 83T415 7T313 -22Q260 -22 217 3T150 73T126 173Q126 228 154 276Z" />
<glyph unicode="/" glyph-name="slash" horiz-adv-x="864" d="M840 1599L279 -363H24L585 1599H840Z" />
<glyph unicode="0" glyph-name="zero" horiz-adv-x="1409" d="M124 823T200 969T411 1193T722 1272Q1290 1272 1285 635Q1284 443 1212 296T1007 66T697 -16Q496 -16 368 72T182 305T124 629Q124 823 200 969ZM970 817T904 936T704 1055Q576 1055 508 948T439
651Q439 530 469 428T561 264T713 201Q841 201 905 311T970 626Q970 817 904 936Z" />
<glyph unicode="1" glyph-name="one" horiz-adv-x="1004" d="M315 911T153 882L127 1067Q191 1084 278 1122T443 1203T560 1278L714 1253L712 0H391V929Q315 911 153 882Z" />
<glyph unicode="2" glyph-name="two" horiz-adv-x="1361" d="M1209 264V0H186L143 155Q403 300 607 481T811 837Q811 930 758 987T598 1044Q505 1044 414 1005T268 910L151 1093Q197 1141 269 1186T439 1261T649 1292Q821 1292 930 1237T1089 1093T1138 895Q1138
715 1012 551T652 243L1209 264Z" />
<glyph unicode="3" glyph-name="three" horiz-adv-x="1170" d="M852 521T931 466T1047 332T1084 170Q1084 28 999 -87T759 -269T404 -335Q334 -335 279 -327T198 -312T123 -289L122 -85Q229 -108 310 -108Q438 -108 538 -77T695 17T752 167Q752 281 684 349T466
412L327 376L285 574Q354 589 419 610T529 654Q683 741 683 879Q683 959 627 997T476 1035Q376 1035 306 1007T170 934L77 1129Q108 1162 177 1197T338 1257T519 1281Q678 1281 786 1236T949 1109T1004 917Q1004 784 930 686T734 531Q852 521 931 466Z" />
<glyph unicode="4" glyph-name="four" horiz-adv-x="1412" d="M1361 0H1128V-376H828V0H176L100 133L660 1334H733L977 1211L516 361L440 234H828L866 644H1128V234H1361V0Z" />
<glyph unicode="5" glyph-name="five" horiz-adv-x="1293" d="M193 -123Q247 -125 272 -125Q435 -125 562 -80T761 46T832 234Q832 345 766 397T546 451Q488 451 417 434T249 385L199 415L265 1252H1112L1084 985H491L458 650Q538 668 596 676T710 685Q848 685
947 631T1099 478T1151 245Q1151 78 1050 -58T761 -273T327 -354Q237 -354 192 -341L193 -123Z" />
<glyph unicode="6" glyph-name="six" horiz-adv-x="1414" d="M1077 1433Q895 1386 756 1264T540 983T461 675Q458 459 519 331T719 202Q843 202 906 277T969 483Q969 640 917 709T779 778Q693 778 623 742L560 923Q594 958 671 987T852 1017Q986 1017 1084 955T1233
787T1285 554Q1285 397 1220 268T1020 62T690 -16Q518 -16 391 65T195 283T127 586Q127 863 263 1088T602 1451T1001 1620L1077 1433Z" />
<glyph unicode="7" glyph-name="seven" horiz-adv-x="1286" d="M106 997V1271H1107L1184 1154L582 -394L264 -302Q409 1 562 351T836 996L106 997Z" />
<glyph unicode="8" glyph-name="eight" horiz-adv-x="1356" d="M1235 271T1164 176T969 33T692 -16Q527 -16 400 29T201 164T129 385Q129 496 198 599T415 779Q305 854 243 948T180 1174Q180 1290 241 1378T416 1516T682 1565Q833 1565 944 1521T1113 1397T1172
1212Q1172 1140 1143 1065T1053 925T904 816Q1004 759 1075 703T1191 572T1235 405Q1235 271 1164 176ZM620 1355T572 1335T496 1278T468 1193Q468 1113 531 1051T715 920Q807 958 852 1030T895 1187Q895 1235 869 1273T794 1333T678 1355Q620 1355 572 1335ZM755
204T808 225T892 285T924 378Q924 438 885 486T787 570T625 660L603 671Q424 576 424 403Q424 314 490 259T693 204Q755 204 808 225Z" />
<glyph unicode="9" glyph-name="nine" horiz-adv-x="1427" d="M903 1272T1029 1191T1222 973T1288 670Q1288 386 1150 155T805 -219T403 -394L320 -210Q508 -163 652 -32T875 265T956 579Q959 798 897 925T698 1052Q580 1052 515 981T449 790Q449 629 503 551T649
473Q706 473 736 481T803 506L863 328Q831 292 755 263T570 234Q435 234 337 298T187 470T135 708Q135 870 202 997T403 1198T729 1272Q903 1272 1029 1191Z" />
<glyph unicode=":" glyph-name="colon" horiz-adv-x="641" d="M126 228T154 276T229 354T330 383Q387 383 429 358T493 287T515 187Q515 131 488 83T415 7T313 -22Q260 -22 217 3T150 73T126 173Q126 228 154 276ZM126 987T154 1035T229 1113T330 1142Q387 1142
429 1117T493 1046T515 946Q515 890 488 842T415 766T313 737Q260 737 217 762T150 832T126 932Q126 987 154 1035Z" />
<glyph unicode=";" glyph-name="semicolon" horiz-adv-x="641" d="M433 -366T457 -328T495 -239T510 -136Q510 -91 492 -43T446 39T393 73V160L615 296Q674 274 715 222T778 104T799 -22Q799 -133 761 -234T657 -407T512 -506L406 -408V-382Q433 -366 457 -328ZM126
987T154 1035T229 1113T330 1142Q387 1142 429 1117T493 1046T515 946Q515 890 488 842T415 766T313 737Q260 737 217 762T150 832T126 932Q126 987 154 1035Z" />
<glyph unicode="&lt;" glyph-name="less" horiz-adv-x="1378" d="M1149 1057L552 774L1149 511V229L197 698V852L1149 1331V1057Z" />
<glyph unicode="=" glyph-name="equal" horiz-adv-x="1423" d="M1172 1139V923H251V1139H1172ZM1172 627V411H251V627H1172Z" />
<glyph unicode="&gt;" glyph-name="greater" horiz-adv-x="1377" d="M1170 852V698L218 229V511L815 774L218 1057V1331L1170 852Z" />
<glyph unicode="?" glyph-name="question" horiz-adv-x="1057" d="M259 854T288 911T358 1009T469 1105Q532 1155 569 1190T632 1273T657 1380Q657 1486 578 1538T332 1591Q264 1591 222 1585T156 1573T126 1565V1797Q159 1817 232 1831T395 1846Q608 1846 741
1784T931 1620T986 1395Q986 1300 952 1227T868 1103T737 986Q671 931 634 895T570 813T539 710Q538 700 538 682Q538 650 544 623T564 546Q566 538 575 506H337Q303 558 281 623T259 780Q259 854 288 911ZM306 207T332 251T403 321T497 347Q550 347 590 324T651
261T673 170Q673 119 647 75T576 5T482 -22Q433 -22 393 1T330 66T306 157Q306 207 332 251Z" />
<glyph unicode="@" glyph-name="at" horiz-adv-x="2228" d="M1266 225T1267 258Q1196 137 1106 66T904 -5Q835 -5 769 44T660 190T617 424Q617 575 681 726T879 979T1209 1080Q1278 1080 1339 1067T1441 1025L1626 1056Q1601 948 1563 759T1498 428Q1481 333 1481
277Q1481 233 1492 215T1529 196Q1604 196 1678 269T1799 475T1847 775Q1847 1105 1678 1235T1236 1366Q1008 1366 812 1254T499 933T382 448Q382 184 480 19T735 -219T1073 -291Q1191 -291 1276 -275T1411 -237T1522 -183L1565 -342Q1355 -468 1053 -468Q804 -468
605 -369T288 -66T171 440Q171 764 316 1015T708 1404T1254 1543Q1489 1543 1670 1458T1953 1207T2056 805Q2056 549 1971 366T1748 89T1457 -5Q1367 -5 1321 42T1268 182Q1266 225 1267 258ZM1039 222T1118 324T1258 571T1335 829Q1316 854 1275 868T1177 883Q1089
883 1017 821T903 662T860 466Q857 222 974 222Q1039 222 1118 324Z" />
<glyph unicode="A" glyph-name="A" horiz-adv-x="1421" d="M987 322H428L327 0H-15L547 1538H869L1436 0H1089L987 322ZM914 551L749 1073L706 1230L662 1073L499 551H914Z" />
<glyph unicode="B" glyph-name="B" horiz-adv-x="1422" d="M342 1522Q383 1522 485 1528Q624 1537 700 1537Q888 1537 1012 1489T1197 1355T1257 1152Q1257 1069 1230 998T1152 878T1029 809Q1119 799 1189 754T1298 633T1338 461Q1338 236 1196 111T715 -14Q570
-14 349 0H188V1523L342 1522ZM832 884T893 940T954 1125Q954 1218 881 1261T666 1304Q626 1304 572 1301T503 1291V893Q530 888 590 886T694 884Q832 884 893 940ZM873 206T944 261T1016 447Q1016 564 946 617T723 671Q665 671 594 669T503 664V232Q522 217 587
212T724 206Q873 206 944 261Z" />
<glyph unicode="C" glyph-name="C" horiz-adv-x="1299" d="M957 1538T1030 1527T1188 1495Q1249 1481 1260 1479L1214 1199Q1208 1202 1162 1227T1038 1269T866 1286Q742 1286 643 1225T486 1049T428 777Q428 619 483 495T643 300T890 230Q955 230 1026 245T1156
283T1243 326L1244 64Q1181 39 1133 23T1015 -4T860 -16Q629 -16 457 80T193 352T100 757Q100 1002 198 1178T466 1446T846 1538Q957 1538 1030 1527Z" />
<glyph unicode="D" glyph-name="D" horiz-adv-x="1554" d="M339 1522Q371 1522 467 1528Q601 1538 708 1538Q1083 1538 1268 1348T1454 801Q1454 546 1361 362T1097 81T693 -16Q621 -16 479 -7Q392 0 342 0H188V1522H339ZM903 230T1010 361T1118 767Q1118 963
1071 1079T927 1247T678 1298Q625 1298 549 1288L509 1284V246Q577 228 713 228Q903 230 1010 361Z" />
<glyph unicode="E" glyph-name="E" horiz-adv-x="1254" d="M1116 1522V1278H506V900H974V659H506V251H1181V0H188V1522H1116Z" />
<glyph unicode="F" glyph-name="F" horiz-adv-x="1145" d="M1111 1522V1278H510V879H952V634H510V0H188V1522H1111Z" />
<glyph unicode="G" glyph-name="G" horiz-adv-x="1494" d="M1372 820V90Q1352 89 1329 82T1265 61Q1164 26 1068 5T827 -16Q599 -16 435 78T186 346T100 753Q100 1017 198 1193T468 1453T859 1538Q975 1538 1045 1528T1198 1498Q1249 1485 1289 1478L1279 1205Q1195
1245 1104 1265T860 1286Q728 1286 632 1226T483 1052T431 780Q431 622 473 498T601 301T815 228Q968 228 1070 266V571L837 583V820H1372Z" />
<glyph unicode="H" glyph-name="H" horiz-adv-x="1601" d="M506 1522V890H1099V1522H1413V0H1099V651H506V0H188V1522H506Z" />
<glyph unicode="I" glyph-name="I" horiz-adv-x="722" d="M521 1522V0H201V1522H521Z" />
<glyph unicode="J" glyph-name="J" horiz-adv-x="798" d="M81 -130T151 -62T247 117Q266 196 272 312T279 608V1522H599V613L600 390Q600 295 596 224T580 91Q555 -40 468 -135T271 -279T67 -332L-10 -164Q81 -130 151 -62Z" />
<glyph unicode="K" glyph-name="K" horiz-adv-x="1444" d="M1411 0H1057Q1046 16 1028 51Q1023 61 1015 76T994 113Q919 248 831 390T663 646L506 469V0H188V1522H506V848L1041 1522H1391L877 878Q943 780 1095 531T1346 110L1411 0Z" />
<glyph unicode="L" glyph-name="L" horiz-adv-x="1120" d="M506 1522V242H1054V0H188V1522H506Z" />
<glyph unicode="M" glyph-name="M" horiz-adv-x="1886" d="M679 1522L882 722L959 386L1017 722L1200 1522H1634L1816 0H1504L1429 816L1402 1282L1290 816L1072 -15H820L579 816L466 1282L430 816L365 0L70 -1L232 1522H679Z" />
<glyph unicode="N" glyph-name="N" horiz-adv-x="1620" d="M1432 1522V0H1113L570 861L450 1104L484 741V0H188V1522H483L1050 627L1165 399L1136 765V1522H1432Z" />
<glyph unicode="O" glyph-name="O" horiz-adv-x="1595" d="M103 1025T195 1194T448 1448T821 1538Q1028 1544 1183 1448T1419 1174T1497 763Q1492 503 1400 329T1147 69T773 -16Q563 -16 409 83T174 361T98 769Q103 1025 195 1194ZM1168 926T1129 1044T1010 1229T814
1296Q703 1296 616 1241T478 1066T427 758Q427 605 468 483T593 291T798 221Q973 221 1070 358T1168 773Q1168 926 1129 1044Z" />
<glyph unicode="P" glyph-name="P" horiz-adv-x="1359" d="M284 1522Q375 1522 525 1530Q665 1538 733 1538Q1004 1538 1146 1412T1289 1013Q1289 839 1219 715T1012 526T680 461Q576 461 506 463V0H188V1522H284ZM806 702T889 773T973 1017Q973 1162 895 1237T669
1307Q611 1305 575 1303T506 1293V710Q571 702 672 702Q806 702 889 773Z" />
<glyph unicode="Q" glyph-name="Q" horiz-adv-x="1595" d="M1392 -81T1455 -74T1550 -56V-275Q1526 -292 1452 -309T1310 -326Q1070 -326 920 -256T715 -14Q522 0 381 102T167 377T98 769Q103 1025 195 1194T448 1448T821 1538Q1025 1544 1178 1451T1414 1186T1497
786Q1497 566 1434 405T1257 146T987 9Q1017 -30 1068 -49T1185 -75T1348 -81Q1392 -81 1455 -74ZM427 605T468 483T593 291T798 221Q973 221 1070 358T1168 773Q1168 926 1129 1044T1010 1229T814 1296Q703 1296 616 1241T478 1066T427 758Q427 605 468 483Z"
/>
<glyph unicode="R" glyph-name="R" horiz-adv-x="1435" d="M1381 0H1027Q1017 14 1007 33T985 80L971 110Q954 146 940 185T903 291Q872 386 849 443T790 540T707 579Q605 575 506 575V0H188V1522H335Q386 1522 452 1528Q507 1532 580 1535T739 1538Q982 1538
1134 1433T1287 1078Q1287 899 1223 792T1034 636Q1087 591 1126 518T1220 319Q1278 179 1318 110L1381 0ZM506 804Q556 798 715 798Q850 798 914 875T978 1069Q978 1137 957 1187T874 1269T701 1301Q582 1301 506 1283V804Z" />
<glyph unicode="S" glyph-name="S" horiz-adv-x="1207" d="M197 329Q270 289 373 261T589 233Q712 233 762 270T812 388Q812 442 787 479T703 555T517 655Q349 738 244 849T139 1128Q139 1272 209 1363T399 1496T670 1538Q800 1538 906 1510T1063 1450L1011 1203Q943
1246 863 1273T679 1300Q558 1300 505 1260T451 1144Q451 1091 477 1053T556 981T714 890Q858 814 943 754T1080 609T1132 408Q1132 274 1067 179T884 34T609 -16Q516 -16 422 -2T255 34T152 74L197 329Z" />
<glyph unicode="T" glyph-name="T" horiz-adv-x="1250" d="M30 1278V1522H1220V1278H786V0H466V1278H30Z" />
<glyph unicode="U" glyph-name="U" horiz-adv-x="1525" d="M152 1522H467L465 670Q465 497 498 403T597 274T767 238Q868 238 932 276T1029 409T1063 670V1522H1376V640Q1376 319 1220 152T758 -16Q432 -16 291 157T150 653L152 1522Z" />
<glyph unicode="V" glyph-name="V" horiz-adv-x="1386" d="M336 1522L620 691L701 401L783 691L1052 1522H1391L831 -6H561L-5 1522H336Z" />
<glyph unicode="W" glyph-name="W" horiz-adv-x="1973" d="M1968 1522L1570 -16H1244L1030 834L981 1162L936 833L717 -16H413L5 1522H324L512 628L565 258L626 628L846 1522H1130L1364 628L1426 274L1477 628L1650 1522H1968Z" />
<glyph unicode="X" glyph-name="X" horiz-adv-x="1376" d="M1344 0H991L747 425L673 556L364 0H32L491 786L43 1522L391 1523L704 984L778 1120L998 1522H1334L880 752L1344 0Z" />
<glyph unicode="Y" glyph-name="Y" horiz-adv-x="1241" d="M780 533V0H461V535L-50 1522H300L580 932L624 819L662 932L950 1522H1291L780 533Z" />
<glyph unicode="Z" glyph-name="Z" horiz-adv-x="1306" d="M740 1210L798 1291H130V1522H1197L1235 1441L563 335L490 242H1196V0H94L54 84L740 1210Z" />
<glyph unicode="[" glyph-name="bracketleft" horiz-adv-x="799" d="M145 1588T161 1640T217 1715T335 1737Q416 1737 471 1734T603 1722L696 1713V1550H428V-20L696 -22V-167L652 -172Q555 -182 494 -186T335 -191Q256 -191 216 -169T161 -95T145 60V1486Q145
1588 161 1640Z" />
<glyph unicode="\" glyph-name="backslash" horiz-adv-x="864" d="M830 -363H575L14 1599H269L830 -363Z" />
<glyph unicode="]" glyph-name="bracketright" horiz-adv-x="799" d="M644 60Q644 -42 629 -94T573 -169T454 -191Q356 -191 295 -187T137 -172L93 -167V-22L361 -20V1550H93V1713L186 1722Q263 1730 318 1733T454 1737Q532 1737 572 1715T628 1641T644 1486V60Z" />
<glyph unicode="^" glyph-name="asciicircum" horiz-adv-x="1373" d="M939 490L687 1164L434 490H153L573 1531H800L1220 490H939Z" />
<glyph unicode="_" glyph-name="underscore" horiz-adv-x="1702" d="M1737 -241V-409H-35V-241H1737Z" />
<glyph unicode="`" glyph-name="grave" horiz-adv-x="666" d="M416 1273T330 1339T165 1486T55 1634L270 1808Q331 1704 426 1588T611 1389L462 1252Q416 1273 330 1339Z" />
<glyph unicode="a" glyph-name="a" horiz-adv-x="1223" d="M773 1162T872 1126T1021 999T1070 745V-16H888Q843 -16 820 -10T784 18T771 88V96Q719 48 643 16T474 -16Q364 -16 280 31T149 163T102 355Q102 455 153 526T301 640Q450 706 758 706V778Q758 842 742
872T679 913T532 924Q484 924 386 900T218 843L149 1043Q189 1067 265 1095T432 1142T607 1162Q773 1162 872 1126ZM631 195T686 215T758 258V530Q701 530 630 518T523 489Q478 472 451 443T424 357Q424 277 467 236T581 195Q631 195 686 215Z" />
<glyph unicode="b" glyph-name="b" horiz-adv-x="1340" d="M916 1156T1019 1096T1183 913T1245 612Q1245 425 1170 281T960 57T649 -23Q553 -23 449 -8T265 29T168 64V1661H480V1224L472 1036Q526 1087 602 1121T791 1156Q916 1156 1019 1096ZM918 776T861 849T695
923Q633 923 576 903T480 852V232Q516 193 656 193Q732 193 791 240T884 379T918 595Q918 776 861 849Z" />
<glyph unicode="c" glyph-name="c" horiz-adv-x="1048" d="M765 1156T847 1139T960 1098L921 857Q878 880 826 890T696 901Q624 901 559 871T451 772T405 595Q402 476 437 395T536 275T684 235Q759 235 827 248T932 282L977 97Q924 46 829 15T627 -16Q455 -16
335 57T155 260T95 556Q95 728 158 864T349 1078T664 1156Q765 1156 847 1139Z" />
<glyph unicode="d" glyph-name="d" horiz-adv-x="1339" d="M1171 1662V-16H959Q921 -16 903 -5T884 42V119Q829 63 751 24T549 -16Q424 -16 321 45T157 231T95 533Q95 720 167 861T371 1079T675 1156Q777 1156 862 1124L859 1224V1662H1171ZM422 375T479 301T645
227Q706 227 763 244T859 287V902Q831 921 788 927T684 934Q607 934 548 891T456 762T422 551Q422 375 479 301Z" />
<glyph unicode="e" glyph-name="e" horiz-adv-x="1190" d="M1093 565T1082 495H408Q417 354 496 285T712 216Q777 216 869 233T1005 275L1056 98Q997 50 879 17T633 -16Q461 -16 340 54T157 256T95 574Q95 742 160 874T349 1081T646 1156Q770 1156 870 1111T1030
966T1093 709Q1093 565 1082 495ZM804 683T804 712Q804 821 763 877T630 934Q538 934 484 874T413 668H803Q804 683 804 712Z" />
<glyph unicode="f" glyph-name="f" horiz-adv-x="858" d="M82 924V1106L237 1140V1249Q237 1406 299 1503T457 1641T663 1683Q722 1683 782 1676T865 1661V1439Q815 1463 709 1463Q636 1463 593 1410T549 1256V1140H815V924H549V0H237V924H82Z" />
<glyph unicode="g" glyph-name="g" d="M1288 914H1099Q1119 856 1119 784Q1119 601 987 505T612 409Q556 409 513 416Q492 399 481 375T470 323Q470 275 500 259T605 243H795Q1047 243 1140 146T1234 -102Q1234 -230 1153 -324T936 -467T645 -516Q380 -516 236
-431T91 -183Q91 -104 139 -43T267 54Q219 79 197 125T174 224Q174 292 216 355T356 458Q247 505 185 588T122 775Q122 971 256 1063T632 1156Q853 1156 977 1073Q1010 1102 1056 1121T1161 1140H1288V914ZM715 600T769 638T824 775Q824 868 776 915T631 963Q534
963 479 922T423 779Q423 695 473 648T617 600Q715 600 769 638ZM505 0Q483 0 443 2Q401 -36 401 -114Q401 -208 459 -270T645 -332Q777 -332 851 -292T926 -164Q926 -105 908 -71T834 -18T668 0H505Z" />
<glyph unicode="h" glyph-name="h" horiz-adv-x="1351" d="M939 1163T1022 1119T1147 975T1189 710V0H877V648Q877 740 862 793T812 871T716 895Q665 895 598 874T480 809V0H168V1662H480V1224L463 1022Q527 1075 624 1115T811 1159Q939 1163 1022 1119Z" />
<glyph unicode="i" glyph-name="i" horiz-adv-x="660" d="M486 1140V0H174V1140H486ZM136 1783T164 1826T238 1894T335 1920Q417 1920 466 1873T515 1750Q515 1700 488 1657T415 1588T317 1562Q266 1562 225 1584T160 1645T136 1733Q136 1783 164 1826Z" />
<glyph unicode="j" glyph-name="j" horiz-adv-x="644" d="M-90 -289T-51 -296T13 -304Q74 -304 108 -276T158 -181T174 1V1140H486V82Q486 -226 380 -366T71 -507Q40 -507 -23 -499T-104 -483V-282Q-90 -289 -51 -296ZM135 1528T163 1571T237 1639T334 1665Q416
1665 465 1618T514 1495Q514 1445 487 1402T414 1333T316 1307Q265 1307 224 1329T159 1390T135 1478Q135 1528 163 1571Z" />
<glyph unicode="k" glyph-name="k" horiz-adv-x="1238" d="M598 475L476 342L480 213V0H168V1661H480V977L470 690L855 1140H1208L801 697L1248 0H893L598 475Z" />
<glyph unicode="l" glyph-name="l" horiz-adv-x="672" d="M492 1662V0H180V1662H492Z" />
<glyph unicode="m" glyph-name="m" horiz-adv-x="2047" d="M1640 1160T1720 1117T1843 977T1885 717V0H1573V649Q1573 744 1560 796T1514 872T1416 896Q1358 896 1294 872T1184 812Q1188 768 1188 707V0H876V648Q876 742 863 795T816 872T720 896Q671 896 603
874T486 809V0H174V1140H457L463 1018Q532 1070 635 1113T834 1160Q940 1164 1013 1131T1128 1022Q1195 1074 1302 1117T1520 1160Q1640 1160 1720 1117Z" />
<glyph unicode="n" glyph-name="n" horiz-adv-x="1352" d="M457 1140L463 1018Q532 1070 635 1113T834 1159Q957 1163 1035 1121T1151 980T1190 715V0H878V648Q878 745 863 798T812 875T710 896Q660 895 597 873T486 809V0H174V1140H457Z" />
<glyph unicode="o" glyph-name="o" horiz-adv-x="1302" d="M96 764T168 893T368 1089T662 1156Q851 1156 973 1077T1150 864T1206 562Q1206 378 1134 248T934 51T641 -16Q451 -16 329 64T152 278T96 581Q96 764 168 893ZM883 721T826 827T653 934Q419 934 419
586Q419 481 443 395T520 256T652 204Q883 204 883 561Q883 721 826 827Z" />
<glyph unicode="p" glyph-name="p" horiz-adv-x="1340" d="M916 1156T1019 1096T1183 913T1245 612Q1245 425 1173 283T969 62T665 -16Q563 -16 476 16L480 -139V-506H168V1140H459V1024Q514 1079 592 1117T791 1156Q916 1156 1019 1096ZM918 776T861 849T695
923Q633 923 576 903T480 852V249Q509 223 553 213T656 203Q732 203 791 249T884 384T918 595Q918 776 861 849Z" />
<glyph unicode="q" glyph-name="q" horiz-adv-x="1340" d="M1172 1140V-506H860V-139L866 102Q741 -16 549 -16Q424 -16 321 45T157 231T95 533Q95 720 167 861T371 1079T675 1156Q749 1156 824 1141T947 1106L1172 1140ZM422 375T479 301T645 227Q707 227 764
244T860 288V901Q832 921 789 927T684 934Q607 934 548 891T456 762T422 551Q422 375 479 301Z" />
<glyph unicode="r" glyph-name="r" horiz-adv-x="926" d="M837 1159T861 1145V844Q838 857 809 864T724 872Q580 872 470 769V0H158V1140H435L449 984Q474 1028 523 1068T638 1133T772 1159Q837 1159 861 1145Z" />
<glyph unicode="s" glyph-name="s" horiz-adv-x="1048" d="M166 289T218 268T338 230T474 214Q567 213 610 235T653 309Q653 357 594 396T406 477Q254 527 187 613T119 825Q119 931 177 1005T340 1118T579 1156Q688 1156 774 1135T900 1091L866 851Q832 882 757
905T610 928Q508 928 463 907T417 836Q417 801 438 777T505 730T640 677Q757 637 826 590T928 481T960 334Q960 161 842 73T513 -16Q434 -16 354 -3T211 30T115 72L147 304Q166 289 218 268Z" />
<glyph unicode="t" glyph-name="t" horiz-adv-x="913" d="M211 924H74V1093Q140 1112 169 1122T222 1151T258 1201Q279 1251 333 1400H523V1140H832V924H523V466Q523 352 535 300T573 234T653 219Q695 219 749 233T830 267L868 92Q821 50 728 17T526 -16Q411 -16
343 19T243 132T211 339V924Z" />
<glyph unicode="u" glyph-name="u" horiz-adv-x="1326" d="M1152 1140V-16H946Q906 -16 888 -5T870 42V94Q805 48 712 16T537 -16Q381 -16 299 43T190 206T162 474V1140H474V477Q474 370 492 316T547 242T649 223Q699 223 755 244T840 288V1140H1152Z" />
<glyph unicode="v" glyph-name="v" horiz-adv-x="1191" d="M1174 1140L739 -16H450L17 1140H354L528 580L601 302L670 580L844 1140H1174Z" />
<glyph unicode="w" glyph-name="w" horiz-adv-x="1757" d="M1739 1140L1383 -16H1105L923 591L879 809L834 591L655 -16H366L18 1140H330L472 589L524 313L581 588L746 1140H1037L1202 589L1254 315L1305 586L1437 1140H1739Z" />
<glyph unicode="x" glyph-name="x" horiz-adv-x="1220" d="M1199 0H842L636 321L603 373L577 319L393 0H36L437 577L36 1140H389L585 843L621 783L651 844L839 1140H1191L787 583L1199 0Z" />
<glyph unicode="y" glyph-name="y" horiz-adv-x="1188" d="M1162 1140L807 -30Q747 -226 647 -338T424 -486Q398 -494 348 -500T272 -507Q246 -507 187 -501T120 -488V-235Q138 -241 177 -248T233 -255Q304 -255 355 -242T457 -174T538 0H404L17 1140H355L528
531L611 202L688 531L827 1140H1162Z" />
<glyph unicode="z" glyph-name="z" horiz-adv-x="1108" d="M572 840L630 923H142L144 1140H1010L1045 1045L561 300L500 216H1029V0H118L76 83L572 840Z" />
<glyph unicode="{" glyph-name="braceleft" horiz-adv-x="952" d="M527 855T475 829T349 776Q503 722 555 664Q594 620 594 562V-20H856V-176Q794 -193 712 -202T544 -211Q466 -211 418 -184T347 -98T324 60V547Q324 581 283 610T182 658T68 682V873Q125 879 184
895T283 938T324 1000V1486Q324 1585 347 1644T418 1730T544 1757Q668 1757 856 1733V1562H594V991Q594 931 555 887Q527 855 475 829Z" />
<glyph unicode="|" glyph-name="bar" horiz-adv-x="865" d="M560 1780V-187H305V1780H560Z" />
<glyph unicode="}" glyph-name="braceright" horiz-adv-x="952" d="M618 965T658 938T758 895T874 873V682Q820 677 760 658T659 610T618 547V60Q618 -39 595 -98T524 -184T398 -211Q313 -211 231 -202T86 -176V-20H348V562Q348 620 387 664Q439 722 593 776Q520
803 468 829T387 887Q348 931 348 991V1562H86V1733Q274 1757 398 1757Q476 1757 524 1730T595 1644T618 1486V1000Q618 965 658 938Z" />
<glyph unicode="~" glyph-name="asciitilde" horiz-adv-x="1448" d="M221 873T269 925T387 1013T533 1050Q586 1050 627 1038T697 1007T764 961Q811 926 844 910T922 893Q986 893 1033 922T1123 998L1239 860Q1224 812 1177 763T1059 681T908 649Q857 649 818
661T753 691T693 737Q648 773 616 790T534 808Q471 808 427 780T338 702L208 830Q221 873 269 925Z" />
<glyph unicode="&#xa0;" glyph-name="uni00A0" horiz-adv-x="669" />
<glyph unicode="&#xa1;" glyph-name="exclamdown" horiz-adv-x="641" d="M505 1114T477 1066T403 990T302 961Q245 961 203 986T138 1056T116 1155Q116 1211 143 1259T217 1337T319 1366Q372 1366 414 1340T481 1269T505 1169Q505 1114 477 1066ZM133 -436L167
789H434L480 -436H133Z" />
<glyph unicode="&#xa2;" glyph-name="cent" horiz-adv-x="1187" d="M981 54T905 25T739 -13L736 -216H564L568 -8Q430 14 335 92T192 289T144 556Q144 709 194 834T346 1041T597 1147L603 1377H774L769 1154Q852 1150 917 1134T1009 1098L970 857Q927 880 875
890T745 901Q673 901 608 871T500 772T454 595Q451 476 486 395T585 275T733 235Q808 235 876 248T981 282L1026 97Q981 54 905 25Z" />
<glyph unicode="&#xa3;" glyph-name="sterling" horiz-adv-x="1576" d="M1369 573T1411 516T1453 348Q1453 176 1337 79T994 -18Q879 -18 797 1T619 53Q563 73 530 82T463 90Q429 52 371 22T256 -8Q222 -8 190 5T136 46T114 116Q114 169 149 209T245 271T381 296Q400
322 408 395T416 535V717H240V898H416V1025Q416 1176 474 1292T648 1473T934 1538Q1049 1538 1142 1511T1301 1441L1175 1212Q1069 1294 963 1294Q896 1294 849 1274T769 1182T736 963V898H1046V717H736V554Q736 433 708 363T626 245Q660 238 711 225Q776 208 824
200T938 192Q1054 192 1109 233T1164 348Q1164 398 1146 438T1101 496L1312 606Q1369 573 1411 516Z" />
<glyph unicode="&#xa4;" glyph-name="currency" horiz-adv-x="1544" d="M1214 702T1194 637T1136 515L1331 316L1191 171L988 377Q884 317 764 317Q644 317 543 376L341 170L200 314L395 513Q357 569 337 635T316 773Q316 913 393 1030L201 1227L340 1374L540
1168Q643 1229 764 1229Q887 1229 990 1168L1203 1381L1344 1234L1138 1027Q1214 911 1214 773Q1214 702 1194 637ZM827 537T879 569T961 656T992 773Q992 835 962 889T879 976T766 1009Q705 1009 653 977T569 890T538 773Q538 711 569 657T652 570T766 537Q827
537 879 569Z" />
<glyph unicode="&#xa5;" glyph-name="yen" horiz-adv-x="1576" d="M1015 851H1281V659H934V461H1281V269H934V0H644V269H286V461H644V659H286V851H577L158 1522H481L721 1102L790 961L857 1104L1112 1522H1437L1015 851Z" />
<glyph unicode="&#xa6;" glyph-name="brokenbar" horiz-adv-x="865" d="M560 1780V964H305V1780H560ZM560 620V-186H305V620H560Z" />
<glyph unicode="&#xa7;" glyph-name="section" horiz-adv-x="1402" d="M1211 529T1083 399Q1172 303 1172 160Q1172 40 1099 -39T913 -156T681 -193Q551 -193 439 -165T275 -100L317 125Q365 89 454 60T659 30Q758 30 815 61T873 165Q873 202 843 231T765 283T634
340Q500 393 414 440T266 568T203 767Q203 849 247 925T368 1064Q254 1168 254 1322Q254 1443 325 1522T505 1637T727 1673Q855 1673 948 1652T1093 1600L1051 1375Q1009 1405 936 1427T751 1450Q660 1450 607 1420T553 1322Q553 1281 584 1248T663 1188T798 1120Q927
1060 1009 1009T1151 876T1211 678Q1211 529 1083 399ZM471 757T509 715T603 645T761 579Q867 539 921 513Q949 581 949 627Q949 693 910 741T811 822T649 902Q550 947 521 962Q471 877 471 818Q471 757 509 715Z" />
<glyph unicode="&#xa8;" glyph-name="dieresis" horiz-adv-x="974" d="M70 1527T95 1569T162 1637T255 1663Q335 1663 377 1617T419 1495Q419 1445 395 1403T329 1335T236 1310Q161 1310 116 1357T70 1478Q70 1527 95 1569ZM555 1527T580 1569T647 1637T740 1663Q820
1663 862 1617T904 1495Q904 1445 880 1403T814 1335T721 1310Q646 1310 601 1357T555 1478Q555 1527 580 1569Z" />
<glyph unicode="&#xa9;" glyph-name="copyright" horiz-adv-x="2093" d="M1285 1840T1485 1723T1801 1404T1917 963Q1917 723 1801 521T1485 201T1046 82Q807 82 608 200T292 521T176 963Q176 1202 292 1403T607 1722T1046 1840Q1285 1840 1485 1723ZM1251 211T1417
312T1679 585T1774 963Q1774 1168 1679 1340T1418 1613T1046 1714Q841 1714 675 1613T413 1340T318 963Q318 758 413 586T674 312T1046 211Q1251 211 1417 312ZM1179 1449T1247 1435T1349 1402L1304 1196Q1271 1220 1211 1237T1092 1254Q1018 1254 961 1223T871
1132T838 991Q838 827 909 751T1104 674Q1222 674 1329 738L1377 579Q1325 536 1235 506T1049 475Q916 475 815 539T659 714T604 955Q604 1097 662 1209T831 1385T1099 1449Q1179 1449 1247 1435Z" />
<glyph unicode="&#xaa;" glyph-name="ordfeminine" horiz-adv-x="1067" d="M677 1616T761 1587T889 1489T933 1307V677H803Q751 677 731 679T698 697T685 752V765Q664 743 621 721T523 683T413 667Q323 667 257 701T155 796T120 940Q120 1040 172 1108T312 1211Q461
1266 673 1266V1301Q673 1354 656 1381T601 1417T498 1427Q454 1427 394 1415T280 1384T203 1350L147 1505Q167 1524 234 1550T387 1596T546 1616Q677 1616 761 1587ZM375 910T410 884T497 858Q552 858 603 875T673 907V1120Q594 1120 543 1114T450 1086Q408 1062
392 1032T375 958Q375 910 410 884Z" />
<glyph unicode="&#xab;" glyph-name="guillemotleft" horiz-adv-x="1998" d="M535 615L966 290L891 76L235 492V735L891 1157L966 941L535 615ZM1318 615L1749 290L1674 76L1018 492V735L1674 1157L1749 941L1318 615Z" />
<glyph unicode="&#xac;" glyph-name="logicalnot" horiz-adv-x="1480" d="M1235 852V323H991V639H245V852H1235Z" />
<glyph unicode="&#xae;" glyph-name="registered" horiz-adv-x="2093" d="M1285 1840T1486 1722T1804 1403T1921 962Q1921 722 1804 520T1486 200T1046 81Q807 81 607 199T289 520T172 962Q172 1201 289 1402T606 1722T1046 1840Q1285 1840 1486 1722ZM1250 211T1417
312T1681 585T1778 962Q1778 1166 1682 1338T1418 1611T1046 1712Q842 1712 675 1611T411 1338T314 962Q314 757 410 585T674 312T1046 211Q1250 211 1417 312ZM798 1444Q828 1444 900 1446Q1023 1449 1059 1449Q1176 1449 1255 1414T1374 1317T1414 1174Q1414
916 1224 857Q1273 832 1305 785T1377 657Q1409 593 1416 581Q1421 573 1436 546T1482 482H1236Q1225 493 1216 509T1197 544L1185 568Q1178 582 1156 634Q1135 688 1118 723T1074 788T1010 832Q997 831 921 831V481H709V1444H798ZM1116 980T1155 1022T1195 1145Q1195
1217 1157 1253T1027 1289Q1020 1289 997 1289T957 1287T921 1278V987Q955 980 1039 980Q1116 980 1155 1022Z" />
<glyph unicode="&#xaf;" glyph-name="overscore" horiz-adv-x="701" d="M646 1626V1420H55V1626H646Z" />
<glyph unicode="&#xb0;" glyph-name="degree" horiz-adv-x="957" d="M577 1634T659 1587T790 1458T838 1278Q838 1176 792 1095T663 967T478 921Q379 921 297 968T166 1098T118 1278Q118 1379 165 1460T294 1587T478 1634Q577 1634 659 1587ZM526 1097T566 1120T628
1185T651 1278Q651 1328 628 1369T565 1434T478 1458Q430 1458 391 1435T329 1370T306 1278Q306 1228 329 1187T391 1121T478 1097Q526 1097 566 1120Z" />
<glyph unicode="&#xb1;" glyph-name="plusminus" horiz-adv-x="1403" d="M584 662L422 656H213V893H422L584 886L578 1073V1290H824V1073L817 886L968 893H1190V656H968L817 662L824 474V260H578V474L584 662ZM1152 198V0H243V198H1152Z" />
<glyph unicode="&#xb2;" glyph-name="uni00B2" horiz-adv-x="1234" d="M1046 921V680H229L186 834Q275 880 397 972T609 1171T700 1366Q700 1519 535 1519Q454 1519 390 1482T264 1368L156 1517Q188 1567 255 1614T412 1692T602 1723Q737 1723 825 1677T953 1563T993
1424Q993 1277 891 1149T598 901L1046 921Z" />
<glyph unicode="&#xb3;" glyph-name="uni00B3" horiz-adv-x="1234" d="M352 803T400 796T528 788Q654 789 711 828T768 943Q768 994 727 1031T593 1085L434 1052L435 1237Q505 1247 560 1260Q632 1282 676 1324T721 1419Q721 1469 680 1495T563 1521Q510 1521
443 1501T314 1443L248 1600Q285 1631 350 1657T486 1698T612 1713Q738 1713 820 1682T942 1595T981 1470Q981 1387 940 1320T792 1195Q870 1191 926 1157T1012 1069T1042 956Q1042 850 991 767T835 636T571 588Q502 588 450 597T336 623Q312 630 289 635L283 819Q352
803 400 796Z" />
<glyph unicode="&#xb4;" glyph-name="acute" horiz-adv-x="665" d="M145 1473T234 1581T396 1808L610 1634Q583 1571 504 1489T336 1339T204 1252L55 1389Q145 1473 234 1581Z" />
<glyph unicode="&#xb5;" glyph-name="uni00B5" horiz-adv-x="1404" d="M1337 87Q1327 72 1292 47T1202 2T1083 -18Q938 -18 932 120Q894 65 830 25T668 -16Q589 -16 532 -1T434 52L463 -371H181V1140H493V484Q493 392 513 337T577 257T697 232Q740 232 787 251T869
300V1140H1181V281Q1181 205 1224 205Q1237 205 1259 211T1306 232L1337 87Z" />
<glyph unicode="&#xb6;" glyph-name="paragraph" horiz-adv-x="1410" d="M284 777T173 891T62 1248Q62 1474 211 1592T658 1711Q707 1711 819 1706T966 1700Q1152 1692 1202 1691V0H950V1522H748V0H496V777Q284 777 173 891Z" />
<glyph unicode="&#xb7;" glyph-name="middot" horiz-adv-x="641" d="M126 836T154 884T229 962T330 991Q387 991 429 966T493 895T515 795Q515 739 488 691T415 615T313 586Q260 586 217 611T150 681T126 781Q126 836 154 884Z" />
<glyph unicode="&#xb8;" glyph-name="cedilla" horiz-adv-x="518" d="M75 -285T130 -285Q181 -285 214 -247T251 -135Q252 -123 252 -101Q252 -57 244 -27T220 30L357 34L406 30Q439 -1 455 -72T468 -221Q464 -343 393 -403T213 -464Q166 -464 109 -456T33 -436L53
-271Q75 -285 130 -285Z" />
<glyph unicode="&#xb9;" glyph-name="uni00B9" horiz-adv-x="1066" d="M389 1396Q292 1369 215 1355L175 1516Q231 1532 308 1568T453 1644T545 1704L690 1679V673H411V1402L389 1396Z" />
<glyph unicode="&#xba;" glyph-name="ordmasculine" horiz-adv-x="1065" d="M690 1618T787 1559T933 1394T982 1147Q982 983 920 876T756 719T529 669Q386 669 286 728T135 894T83 1148Q83 1310 150 1415T323 1569T552 1618Q690 1618 787 1559ZM630 860T672 924T715
1134Q715 1273 673 1350T544 1427Q449 1427 400 1363T350 1156Q350 1018 397 939T538 860Q630 860 672 924Z" />
<glyph unicode="&#xbb;" glyph-name="guillemotright" horiz-adv-x="1998" d="M314 1157L970 735V492L314 76L239 290L670 615L239 941L314 1157ZM1753 735V492L1097 76L1022 290L1453 615L1022 941L1097 1157L1753 735Z" />
<glyph unicode="&#xbc;" glyph-name="onequarter" horiz-adv-x="2559" d="M2360 195H2196V-77H1940L1941 195H1395L1343 289L1841 1178H1909L2096 1086L1656 387H1941L1966 647H2196V387H2360V195ZM1310 1530H1553L1011 0H771L1310 1530ZM421 1396Q324 1369 247
1355L207 1516Q263 1532 340 1568T485 1644T577 1704L722 1679V673H443V1402L421 1396Z" />
<glyph unicode="&#xbd;" glyph-name="onehalf" horiz-adv-x="2559" d="M2368 239V-2H1551L1508 152Q1597 198 1719 290T1931 489T2022 684Q2022 837 1857 837Q1776 837 1712 800T1586 686L1478 835Q1510 885 1577 932T1734 1010T1924 1041Q2059 1041 2147 995T2275
881T2315 742Q2315 595 2213 467T1920 219L2368 239ZM422 1396Q325 1369 248 1355L208 1516Q264 1532 341 1568T486 1644T578 1704L723 1679V673H444V1402L422 1396ZM1310 1530H1553L1011 0H771L1310 1530Z" />
<glyph unicode="&#xbe;" glyph-name="threequarters" horiz-adv-x="2559" d="M2360 195H2196V-77H1940L1941 195H1395L1343 289L1841 1178H1909L2096 1086L1656 387H1941L1966 647H2196V387H2360V195ZM218 803T266 796T394 788Q520 789 577 828T634 943Q634 994
593 1031T459 1085L300 1052L301 1237Q371 1247 426 1260Q498 1282 542 1324T587 1419Q587 1469 546 1495T429 1521Q376 1521 309 1501T180 1443L114 1600Q151 1631 216 1657T352 1698T478 1713Q604 1713 686 1682T808 1595T847 1470Q847 1387 806 1320T658 1195Q736
1191 792 1157T878 1069T908 956Q908 850 857 767T701 636T437 588Q368 588 316 597T202 623Q178 630 155 635L149 819Q218 803 266 796ZM1310 1530H1553L1011 0H771L1310 1530Z" />
<glyph unicode="&#xbf;" glyph-name="questiondown" horiz-adv-x="1057" d="M741 1317T715 1273T644 1203T550 1177Q497 1177 457 1200T396 1263T374 1354Q374 1405 400 1449T471 1519T565 1546Q614 1546 654 1523T717 1458T741 1367Q741 1317 715 1273ZM788 670T759
613T689 515T578 419Q515 369 478 334T415 251T390 144Q390 38 469 -14T715 -67Q783 -67 825 -61T891 -49T921 -41V-273Q888 -293 815 -307T652 -322Q439 -322 306 -260T116 -96T61 129Q61 224 95 297T179 421T310 538Q376 593 413 629T477 711T508 814Q509 824
509 842Q509 874 503 901T483 978Q481 986 472 1018H710Q744 966 766 901T788 744Q788 670 759 613Z" />
<glyph unicode="&#xc0;" glyph-name="Agrave" horiz-adv-x="1421" d="M987 322H428L327 0H-15L547 1538H869L1436 0H1089L987 322ZM914 551L749 1073L706 1230L662 1073L499 551H914ZM665 1558T594 1610T452 1729T343 1849L560 1980Q571 1948 654 1865T855 1668L709
1543Q665 1558 594 1610Z" />
<glyph unicode="&#xc1;" glyph-name="Aacute" horiz-adv-x="1421" d="M987 322H428L327 0H-15L547 1538H869L1436 0H1089L987 322ZM914 551L749 1073L706 1230L662 1073L499 551H914ZM640 1734T746 1841T864 1980L1081 1849Q1037 1792 969 1727T832 1610T715 1543L569
1668Q640 1734 746 1841Z" />
<glyph unicode="&#xc2;" glyph-name="Acircumflex" horiz-adv-x="1421" d="M987 322H428L327 0H-15L547 1538H869L1436 0H1089L987 322ZM914 551L749 1073L706 1230L662 1073L499 551H914ZM601 1959H821L1097 1651L932 1559L711 1758L489 1559L327 1649L601 1959Z" />
<glyph unicode="&#xc3;" glyph-name="Atilde" horiz-adv-x="1421" d="M987 322H428L327 0H-15L547 1538H869L1436 0H1089L987 322ZM914 551L749 1073L706 1230L662 1073L499 551H914ZM312 1831T390 1894T578 1957Q638 1957 677 1938T761 1881Q795 1853 818 1840T872
1827Q917 1827 954 1858T1027 1938L1153 1830Q1117 1726 1042 1664T855 1602Q797 1602 760 1621T678 1677Q641 1707 616 1721T556 1735Q517 1735 477 1705T402 1633L277 1731Q312 1831 390 1894Z" />
<glyph unicode="&#xc4;" glyph-name="Adieresis" horiz-adv-x="1421" d="M987 322H428L327 0H-15L547 1538H869L1436 0H1089L987 322ZM914 551L749 1073L706 1230L662 1073L499 551H914ZM272 1828T297 1870T365 1936T459 1960Q540 1960 583 1916T627 1796Q627
1745 603 1704T536 1638T441 1614Q364 1614 318 1659T272 1778Q272 1828 297 1870ZM796 1828T821 1870T889 1936T983 1960Q1064 1960 1107 1916T1150 1796Q1150 1745 1126 1704T1060 1638T964 1614Q888 1614 842 1659T796 1778Q796 1828 821 1870Z" />
<glyph unicode="&#xc5;" glyph-name="Aring" horiz-adv-x="1421" d="M987 322H428L327 0H-15L515 1451Q443 1484 405 1545T367 1693Q367 1791 416 1853T544 1942T714 1969Q873 1969 961 1900T1050 1697Q1050 1608 1010 1547T900 1454L1436 0H1089L987 322ZM633
1823T592 1796T551 1698Q551 1636 594 1602T708 1567Q787 1566 827 1592T867 1691Q867 1757 822 1790T703 1823Q633 1823 592 1796ZM914 551L749 1073L706 1230L662 1073L499 551H914Z" />
<glyph unicode="&#xc6;" glyph-name="AE" horiz-adv-x="1939" d="M1853 251V0H860V376H412L234 0H-111L655 1522H1788V1278H1178V904H1646V663H1178V251H1853ZM860 598V1324L517 598H860Z" />
<glyph unicode="&#xc7;" glyph-name="Ccedilla" horiz-adv-x="1299" d="M1244 64Q1164 32 1097 13T938 -13Q956 -53 964 -108T971 -221Q967 -343 896 -403T716 -464Q669 -464 612 -456T536 -436L556 -271Q578 -285 633 -285Q684 -285 717 -247T754 -135Q755 -123
755 -101Q755 -46 741 -9Q543 15 399 116T177 383T100 757Q100 1002 198 1178T466 1446T846 1538Q957 1538 1030 1527T1188 1495Q1249 1481 1260 1479L1214 1199Q1208 1202 1162 1227T1038 1269T866 1286Q742 1286 643 1225T486 1049T428 777Q428 619 483 495T643
300T890 230Q955 230 1026 245T1156 283T1243 326L1244 64Z" />
<glyph unicode="&#xc8;" glyph-name="Egrave" horiz-adv-x="1254" d="M654 1558T583 1610T441 1729T332 1849L549 1980Q560 1948 643 1865T844 1668L698 1543Q654 1558 583 1610ZM1116 1522V1278H506V900H974V659H506V251H1181V0H188V1522H1116Z" />
<glyph unicode="&#xc9;" glyph-name="Eacute" horiz-adv-x="1254" d="M629 1734T735 1841T853 1980L1070 1849Q1026 1792 958 1727T821 1610T704 1543L558 1668Q629 1734 735 1841ZM1116 1522V1278H506V900H974V659H506V251H1181V0H188V1522H1116Z" />
<glyph unicode="&#xca;" glyph-name="Ecircumflex" horiz-adv-x="1254" d="M1116 1522V1278H506V900H974V659H506V251H1181V0H188V1522H1116ZM590 1959H810L1086 1651L921 1559L700 1758L478 1559L316 1649L590 1959Z" />
<glyph unicode="&#xcb;" glyph-name="Edieresis" horiz-adv-x="1254" d="M261 1828T286 1870T354 1936T448 1960Q529 1960 572 1916T616 1796Q616 1745 592 1704T525 1638T430 1614Q353 1614 307 1659T261 1778Q261 1828 286 1870ZM785 1828T810 1870T878 1936T972
1960Q1053 1960 1096 1916T1139 1796Q1139 1745 1115 1704T1049 1638T953 1614Q877 1614 831 1659T785 1778Q785 1828 810 1870ZM1116 1522V1278H506V900H974V659H506V251H1181V0H188V1522H1116Z" />
<glyph unicode="&#xcc;" glyph-name="Igrave" horiz-adv-x="722" d="M521 1522V0H201V1522H521ZM571 1558T500 1610T358 1729T249 1849L466 1980Q477 1948 560 1865T761 1668L615 1543Q571 1558 500 1610Z" />
<glyph unicode="&#xcd;" glyph-name="Iacute" horiz-adv-x="722" d="M521 1522V0H201V1522H521ZM290 1734T396 1841T514 1980L731 1849Q687 1792 619 1727T482 1610T365 1543L219 1668Q290 1734 396 1841Z" />
<glyph unicode="&#xce;" glyph-name="Icircumflex" horiz-adv-x="722" d="M521 1522V0H201V1522H521ZM507 2215H727L1003 1907L838 1815L617 2014L395 1815L233 1905L507 2215Z" />
<glyph unicode="&#xcf;" glyph-name="Idieresis" horiz-adv-x="722" d="M521 1522V0H201V1522H521ZM-78 1828T-53 1870T15 1936T109 1960Q190 1960 233 1916T277 1796Q277 1745 253 1704T186 1638T91 1614Q14 1614 -32 1659T-78 1778Q-78 1828 -53 1870ZM446 1828T471
1870T539 1936T633 1960Q714 1960 757 1916T800 1796Q800 1745 776 1704T710 1638T614 1614Q538 1614 492 1659T446 1778Q446 1828 471 1870Z" />
<glyph unicode="&#xd0;" glyph-name="Eth" horiz-adv-x="1554" d="M1083 1538T1268 1348T1454 801Q1454 546 1361 362T1097 81T693 -16Q621 -16 479 -7Q392 0 342 0H188V694H69V895H188V1522H339Q371 1522 467 1528Q601 1538 708 1538Q1083 1538 1268 1348ZM903
230T1010 361T1118 767Q1118 963 1071 1079T927 1247T678 1298Q625 1298 549 1288L509 1284V895H846V694H509V246Q577 228 713 228Q903 230 1010 361Z" />
<glyph unicode="&#xd1;" glyph-name="Ntilde" horiz-adv-x="1622" d="M411 1831T489 1894T677 1957Q737 1957 776 1938T860 1881Q894 1853 917 1840T971 1827Q1016 1827 1053 1858T1126 1938L1252 1830Q1216 1726 1141 1664T954 1602Q896 1602 859 1621T777 1677Q740
1707 715 1721T655 1735Q616 1735 576 1705T501 1633L376 1731Q411 1831 489 1894ZM1432 1522V0H1113L570 861L450 1104L484 741V0H188V1522H483L1050 627L1165 399L1136 765V1522H1432Z" />
<glyph unicode="&#xd2;" glyph-name="Ograve" horiz-adv-x="1595" d="M777 1558T706 1610T564 1729T455 1849L672 1980Q683 1948 766 1865T967 1668L821 1543Q777 1558 706 1610ZM103 1025T195 1194T448 1448T821 1538Q1028 1544 1183 1448T1419 1174T1497 763Q1492
503 1400 329T1147 69T773 -16Q563 -16 409 83T174 361T98 769Q103 1025 195 1194ZM1168 926T1129 1044T1010 1229T814 1296Q703 1296 616 1241T478 1066T427 758Q427 605 468 483T593 291T798 221Q973 221 1070 358T1168 773Q1168 926 1129 1044Z" />
<glyph unicode="&#xd3;" glyph-name="Oacute" horiz-adv-x="1595" d="M752 1770T858 1877T976 2016L1193 1885Q1149 1828 1081 1763T944 1646T827 1579L681 1704Q752 1770 858 1877ZM103 1025T195 1194T448 1448T821 1538Q1028 1544 1183 1448T1419 1174T1497
763Q1492 503 1400 329T1147 69T773 -16Q563 -16 409 83T174 361T98 769Q103 1025 195 1194ZM1168 926T1129 1044T1010 1229T814 1296Q703 1296 616 1241T478 1066T427 758Q427 605 468 483T593 291T798 221Q973 221 1070 358T1168 773Q1168 926 1129 1044Z" />
<glyph unicode="&#xd4;" glyph-name="Ocircumflex" horiz-adv-x="1595" d="M103 1025T195 1194T448 1448T821 1538Q1028 1544 1183 1448T1419 1174T1497 763Q1492 503 1400 329T1147 69T773 -16Q563 -16 409 83T174 361T98 769Q103 1025 195 1194ZM1168 926T1129
1044T1010 1229T814 1296Q703 1296 616 1241T478 1066T427 758Q427 605 468 483T593 291T798 221Q973 221 1070 358T1168 773Q1168 926 1129 1044ZM713 1959H933L1209 1651L1044 1559L823 1758L601 1559L439 1649L713 1959Z" />
<glyph unicode="&#xd5;" glyph-name="Otilde" horiz-adv-x="1595" d="M424 1831T502 1894T690 1957Q750 1957 789 1938T873 1881Q907 1853 930 1840T984 1827Q1029 1827 1066 1858T1139 1938L1265 1830Q1229 1726 1154 1664T967 1602Q909 1602 872 1621T790 1677Q753
1707 728 1721T668 1735Q629 1735 589 1705T514 1633L389 1731Q424 1831 502 1894ZM103 1025T195 1194T448 1448T821 1538Q1028 1544 1183 1448T1419 1174T1497 763Q1492 503 1400 329T1147 69T773 -16Q563 -16 409 83T174 361T98 769Q103 1025 195 1194ZM1168
926T1129 1044T1010 1229T814 1296Q703 1296 616 1241T478 1066T427 758Q427 605 468 483T593 291T798 221Q973 221 1070 358T1168 773Q1168 926 1129 1044Z" />
<glyph unicode="&#xd6;" glyph-name="Odieresis" horiz-adv-x="1595" d="M384 1828T409 1870T477 1936T571 1960Q652 1960 695 1916T739 1796Q739 1745 715 1704T648 1638T553 1614Q476 1614 430 1659T384 1778Q384 1828 409 1870ZM908 1828T933 1870T1001 1936T1095
1960Q1176 1960 1219 1916T1262 1796Q1262 1745 1238 1704T1172 1638T1076 1614Q1000 1614 954 1659T908 1778Q908 1828 933 1870ZM103 1025T195 1194T448 1448T821 1538Q1028 1544 1183 1448T1419 1174T1497 763Q1492 503 1400 329T1147 69T773 -16Q563 -16 409
83T174 361T98 769Q103 1025 195 1194ZM1168 926T1129 1044T1010 1229T814 1296Q703 1296 616 1241T478 1066T427 758Q427 605 468 483T593 291T798 221Q973 221 1070 358T1168 773Q1168 926 1129 1044Z" />
<glyph unicode="&#xd7;" glyph-name="multiply" horiz-adv-x="1380" d="M168 1160L339 1320L693 942L1044 1320L1215 1160L856 777L1212 408L1041 237L690 605L339 237L168 408L527 776L168 1160Z" />
<glyph unicode="&#xd8;" glyph-name="Oslash" horiz-adv-x="1595" d="M1239 1428T1323 1328T1452 1090T1497 787Q1497 519 1406 340T1151 72T771 -16Q673 -16 584 7L501 -220L376 -188L464 52Q346 111 263 215T137 461T98 769Q103 1025 195 1194T448 1448T821
1538Q911 1541 999 1522L1093 1781L1218 1749L1121 1481Q1239 1428 1323 1328ZM427 620T461 507T562 322L911 1282Q864 1296 814 1296Q703 1296 616 1241T478 1066T427 758Q427 620 461 507ZM973 221T1070 358T1168 773Q1168 919 1132 1034T1024 1216L670 245Q727
221 798 221Q973 221 1070 358Z" />
<glyph unicode="&#xd9;" glyph-name="Ugrave" horiz-adv-x="1525" d="M722 1558T651 1610T509 1729T400 1849L617 1980Q628 1948 711 1865T912 1668L766 1543Q722 1558 651 1610ZM152 1522H467L465 670Q465 497 498 403T597 274T767 238Q868 238 932 276T1029
409T1063 670V1522H1376V640Q1376 319 1220 152T758 -16Q432 -16 291 157T150 653L152 1522Z" />
<glyph unicode="&#xda;" glyph-name="Uacute" horiz-adv-x="1525" d="M697 1734T803 1841T921 1980L1138 1849Q1094 1792 1026 1727T889 1610T772 1543L626 1668Q697 1734 803 1841ZM152 1522H467L465 670Q465 497 498 403T597 274T767 238Q868 238 932 276T1029
409T1063 670V1522H1376V640Q1376 319 1220 152T758 -16Q432 -16 291 157T150 653L152 1522Z" />
<glyph unicode="&#xdb;" glyph-name="Ucircumflex" horiz-adv-x="1525" d="M152 1522H467L465 670Q465 497 498 403T597 274T767 238Q868 238 932 276T1029 409T1063 670V1522H1376V640Q1376 319 1220 152T758 -16Q432 -16 291 157T150 653L152 1522ZM658 1959H878L1154
1651L989 1559L768 1758L546 1559L384 1649L658 1959Z" />
<glyph unicode="&#xdc;" glyph-name="Udieresis" horiz-adv-x="1525" d="M329 1828T354 1870T422 1936T516 1960Q597 1960 640 1916T684 1796Q684 1745 660 1704T593 1638T498 1614Q421 1614 375 1659T329 1778Q329 1828 354 1870ZM853 1828T878 1870T946 1936T1040
1960Q1121 1960 1164 1916T1207 1796Q1207 1745 1183 1704T1117 1638T1021 1614Q945 1614 899 1659T853 1778Q853 1828 878 1870ZM152 1522H467L465 670Q465 497 498 403T597 274T767 238Q868 238 932 276T1029 409T1063 670V1522H1376V640Q1376 319 1220 152T758
-16Q432 -16 291 157T150 653L152 1522Z" />
<glyph unicode="&#xdd;" glyph-name="Yacute" horiz-adv-x="1241" d="M780 533V0H461V535L-50 1522H300L580 932L624 819L662 932L950 1522H1291L780 533ZM568 1734T674 1841T792 1980L1009 1849Q965 1792 897 1727T760 1610T643 1543L497 1668Q568 1734 674 1841Z" />
<glyph unicode="&#xde;" glyph-name="Thorn" horiz-adv-x="1359" d="M1001 1287T1141 1167T1282 805Q1282 633 1215 510T1018 322T702 257Q620 257 567 261T506 266V0H188V1522H506V1275L571 1279Q683 1287 749 1287Q1001 1287 1141 1167ZM755 500T821 523T927
613T967 802Q967 921 895 984T684 1047Q582 1047 506 1028V510Q542 503 578 502T662 500Q755 500 821 523Z" />
<glyph unicode="&#xdf;" glyph-name="germandbls" horiz-adv-x="1395" d="M998 859T1013 833T1053 784T1121 724Q1189 668 1233 622T1310 504T1342 339Q1342 149 1221 67T916 -16Q836 -16 771 -7T680 17V240Q705 224 754 211T861 197Q924 197 974 227T1025 324Q1025
368 1008 405T964 471T892 542Q839 591 807 628T752 717T729 837Q729 882 743 918T777 981T830 1044Q876 1094 898 1131T921 1222Q921 1295 879 1333T759 1372Q638 1372 574 1276T510 951V0H193V924H54V1119L210 1148Q256 1367 415 1473T804 1579Q938 1579 1037
1541T1191 1432T1245 1268Q1245 1206 1223 1160T1171 1083T1092 1014Q1044 977 1021 950T998 889Q998 859 1013 833Z" />
<glyph unicode="&#xe0;" glyph-name="agrave" horiz-adv-x="1223" d="M773 1162T872 1126T1021 999T1070 745V-16H888Q843 -16 820 -10T784 18T771 88V96Q719 48 643 16T474 -16Q364 -16 280 31T149 163T102 355Q102 455 153 526T301 640Q450 706 758 706V778Q758
842 742 872T679 913T532 924Q484 924 386 900T218 843L149 1043Q189 1067 265 1095T432 1142T607 1162Q773 1162 872 1126ZM631 195T686 215T758 258V530Q701 530 630 518T523 489Q478 472 451 443T424 357Q424 277 467 236T581 195Q631 195 686 215ZM552 1272T466
1338T301 1485T191 1633L406 1807Q467 1703 562 1587T747 1388L598 1251Q552 1272 466 1338Z" />
<glyph unicode="&#xe1;" glyph-name="aacute" horiz-adv-x="1223" d="M773 1162T872 1126T1021 999T1070 745V-16H888Q843 -16 820 -10T784 18T771 88V96Q719 48 643 16T474 -16Q364 -16 280 31T149 163T102 355Q102 455 153 526T301 640Q450 706 758 706V778Q758
842 742 872T679 913T532 924Q484 924 386 900T218 843L149 1043Q189 1067 265 1095T432 1142T607 1162Q773 1162 872 1126ZM631 195T686 215T758 258V530Q701 530 630 518T523 489Q478 472 451 443T424 357Q424 277 467 236T581 195Q631 195 686 215ZM583 1472T672
1580T834 1807L1048 1633Q1021 1570 942 1488T774 1338T642 1251L493 1388Q583 1472 672 1580Z" />
<glyph unicode="&#xe2;" glyph-name="acircumflex" horiz-adv-x="1223" d="M773 1162T872 1126T1021 999T1070 745V-16H888Q843 -16 820 -10T784 18T771 88V96Q719 48 643 16T474 -16Q364 -16 280 31T149 163T102 355Q102 455 153 526T301 640Q450 706 758 706V778Q758
842 742 872T679 913T532 924Q484 924 386 900T218 843L149 1043Q189 1067 265 1095T432 1142T607 1162Q773 1162 872 1126ZM631 195T686 215T758 258V530Q701 530 630 518T523 489Q478 472 451 443T424 357Q424 277 467 236T581 195Q631 195 686 215ZM517 1698H740L1023
1326L862 1236L629 1482L387 1236L231 1325L517 1698Z" />
<glyph unicode="&#xe3;" glyph-name="atilde" horiz-adv-x="1223" d="M773 1162T872 1126T1021 999T1070 745V-16H888Q843 -16 820 -10T784 18T771 88V96Q719 48 643 16T474 -16Q364 -16 280 31T149 163T102 355Q102 455 153 526T301 640Q450 706 758 706V778Q758
842 742 872T679 913T532 924Q484 924 386 900T218 843L149 1043Q189 1067 265 1095T432 1142T607 1162Q773 1162 872 1126ZM631 195T686 215T758 258V530Q701 530 630 518T523 489Q478 472 451 443T424 357Q424 277 467 236T581 195Q631 195 686 215ZM215 1572T293
1635T481 1698Q545 1698 585 1678T668 1621Q700 1594 722 1581T775 1568Q820 1568 857 1599T930 1679L1056 1571Q1020 1467 945 1405T758 1343Q700 1343 663 1362T581 1418Q544 1448 519 1462T459 1476Q420 1476 380 1446T305 1374L180 1472Q215 1572 293 1635Z"
/>
<glyph unicode="&#xe4;" glyph-name="adieresis" horiz-adv-x="1223" d="M773 1162T872 1126T1021 999T1070 745V-16H888Q843 -16 820 -10T784 18T771 88V96Q719 48 643 16T474 -16Q364 -16 280 31T149 163T102 355Q102 455 153 526T301 640Q450 706 758 706V778Q758
842 742 872T679 913T532 924Q484 924 386 900T218 843L149 1043Q189 1067 265 1095T432 1142T607 1162Q773 1162 872 1126ZM631 195T686 215T758 258V530Q701 530 630 518T523 489Q478 472 451 443T424 357Q424 277 467 236T581 195Q631 195 686 215ZM209 1526T234
1568T301 1636T394 1662Q474 1662 516 1616T558 1494Q558 1444 534 1402T468 1334T375 1309Q300 1309 255 1356T209 1477Q209 1526 234 1568ZM694 1526T719 1568T786 1636T879 1662Q959 1662 1001 1616T1043 1494Q1043 1444 1019 1402T953 1334T860 1309Q785 1309
740 1356T694 1477Q694 1526 719 1568Z" />
<glyph unicode="&#xe5;" glyph-name="aring" horiz-adv-x="1223" d="M773 1162T872 1126T1021 999T1070 745V-16H888Q843 -16 820 -10T784 18T771 88V96Q719 48 643 16T474 -16Q364 -16 280 31T149 163T102 355Q102 455 153 526T301 640Q450 706 758 706V778Q758
842 742 872T679 913T532 924Q484 924 386 900T218 843L149 1043Q189 1067 265 1095T432 1142T607 1162Q773 1162 872 1126ZM631 195T686 215T758 258V530Q701 530 630 518T523 489Q478 472 451 443T424 357Q424 277 467 236T581 195Q631 195 686 215ZM284 1700T333
1764T461 1857T631 1887Q788 1887 877 1814T967 1605Q967 1507 920 1442T794 1345T622 1313Q517 1313 441 1348T325 1447T284 1601Q284 1700 333 1764ZM784 1665T739 1703T621 1741Q554 1741 511 1709T468 1606Q468 1543 512 1504T625 1465Q702 1464 743 1494T784
1599Q784 1665 739 1703Z" />
<glyph unicode="&#xe6;" glyph-name="ae" horiz-adv-x="1851" d="M1754 565T1743 495H1069Q1078 354 1157 285T1373 216Q1438 216 1530 233T1666 275L1717 98Q1658 50 1540 17T1294 -16Q1157 -16 1052 29T879 159Q797 65 695 25T475 -16Q371 -16 286 23T152 141T102
330Q102 434 159 513T315 637Q396 673 516 689T751 706V767Q751 826 732 860T670 909T554 924Q499 924 434 911T313 879T228 843L159 1043Q194 1063 261 1090T426 1139T627 1162Q752 1162 833 1136T960 1048Q1099 1156 1307 1156Q1431 1156 1531 1111T1691 966T1754
709Q1754 565 1743 495ZM1465 683T1465 712Q1465 821 1424 877T1291 934Q1199 934 1145 874T1074 668H1464Q1465 683 1465 712ZM644 195T706 226T801 298Q763 397 757 530Q689 531 629 519T528 489Q495 475 474 461T438 420T422 347Q422 272 466 234T581 195Q644
195 706 226Z" />
<glyph unicode="&#xe7;" glyph-name="ccedilla" horiz-adv-x="1048" d="M936 57T867 29T715 -10Q734 -49 742 -106T749 -221Q745 -343 674 -403T494 -464Q447 -464 390 -456T314 -436L334 -271Q356 -285 411 -285Q462 -285 495 -247T532 -135Q533 -123 533 -100Q533
-44 519 -8Q381 14 286 92T143 289T95 556Q95 728 158 864T349 1078T664 1156Q765 1156 847 1139T960 1098L921 857Q878 880 826 890T696 901Q624 901 559 871T451 772T405 595Q402 476 437 395T536 275T684 235Q759 235 827 248T932 282L977 97Q936 57 867 29Z"
/>
<glyph unicode="&#xe8;" glyph-name="egrave" horiz-adv-x="1190" d="M1093 565T1082 495H408Q417 354 496 285T712 216Q777 216 869 233T1005 275L1056 98Q997 50 879 17T633 -16Q461 -16 340 54T157 256T95 574Q95 742 160 874T349 1081T646 1156Q770 1156 870
1111T1030 966T1093 709Q1093 565 1082 495ZM804 683T804 712Q804 821 763 877T630 934Q538 934 484 874T413 668H803Q804 683 804 712ZM560 1273T474 1339T309 1486T199 1634L414 1808Q475 1704 570 1588T755 1389L606 1252Q560 1273 474 1339Z" />
<glyph unicode="&#xe9;" glyph-name="eacute" horiz-adv-x="1190" d="M591 1473T680 1581T842 1808L1056 1634Q1029 1571 950 1489T782 1339T650 1252L501 1389Q591 1473 680 1581ZM1093 565T1082 495H408Q417 354 496 285T712 216Q777 216 869 233T1005 275L1056
98Q997 50 879 17T633 -16Q461 -16 340 54T157 256T95 574Q95 742 160 874T349 1081T646 1156Q770 1156 870 1111T1030 966T1093 709Q1093 565 1082 495ZM804 683T804 712Q804 821 763 877T630 934Q538 934 484 874T413 668H803Q804 683 804 712Z" />
<glyph unicode="&#xea;" glyph-name="ecircumflex" horiz-adv-x="1190" d="M525 1699H748L1031 1327L870 1237L637 1483L395 1237L239 1326L525 1699ZM1093 565T1082 495H408Q417 354 496 285T712 216Q777 216 869 233T1005 275L1056 98Q997 50 879 17T633 -16Q461
-16 340 54T157 256T95 574Q95 742 160 874T349 1081T646 1156Q770 1156 870 1111T1030 966T1093 709Q1093 565 1082 495ZM804 683T804 712Q804 821 763 877T630 934Q538 934 484 874T413 668H803Q804 683 804 712Z" />
<glyph unicode="&#xeb;" glyph-name="edieresis" horiz-adv-x="1190" d="M217 1527T242 1569T309 1637T402 1663Q482 1663 524 1617T566 1495Q566 1445 542 1403T476 1335T383 1310Q308 1310 263 1357T217 1478Q217 1527 242 1569ZM702 1527T727 1569T794 1637T887
1663Q967 1663 1009 1617T1051 1495Q1051 1445 1027 1403T961 1335T868 1310Q793 1310 748 1357T702 1478Q702 1527 727 1569ZM1093 565T1082 495H408Q417 354 496 285T712 216Q777 216 869 233T1005 275L1056 98Q997 50 879 17T633 -16Q461 -16 340 54T157 256T95
574Q95 742 160 874T349 1081T646 1156Q770 1156 870 1111T1030 966T1093 709Q1093 565 1082 495ZM804 683T804 712Q804 821 763 877T630 934Q538 934 484 874T413 668H803Q804 683 804 712Z" />
<glyph unicode="&#xec;" glyph-name="igrave" horiz-adv-x="660" d="M486 1140V0H174V1140H486ZM256 1272T170 1338T5 1485T-105 1633L110 1807Q171 1703 266 1587T451 1388L302 1251Q256 1272 170 1338Z" />
<glyph unicode="&#xed;" glyph-name="iacute" horiz-adv-x="660" d="M287 1472T376 1580T538 1807L752 1633Q725 1570 646 1488T478 1338T346 1251L197 1388Q287 1472 376 1580ZM486 1140V0H174V1140H486Z" />
<glyph unicode="&#xee;" glyph-name="icircumflex" horiz-adv-x="660" d="M477 1954H700L983 1582L822 1492L589 1738L347 1492L191 1581L477 1954ZM486 1140V0H174V1140H486Z" />
<glyph unicode="&#xef;" glyph-name="idieresis" horiz-adv-x="660" d="M-75 1526T-50 1568T17 1636T110 1662Q190 1662 232 1616T274 1494Q274 1444 250 1402T184 1334T91 1309Q16 1309 -29 1356T-75 1477Q-75 1526 -50 1568ZM386 1526T411 1568T478 1636T571
1662Q651 1662 693 1616T735 1494Q735 1444 711 1402T645 1334T552 1309Q477 1309 432 1356T386 1477Q386 1526 411 1568ZM486 1140V0H174V1140H486Z" />
<glyph unicode="&#xf0;" glyph-name="eth" horiz-adv-x="1294" d="M857 1508T973 1361T1152 1029T1215 651Q1215 433 1141 280T938 50T650 -27Q483 -27 357 45T163 248T95 550Q95 732 157 867T338 1075T624 1149Q732 1149 816 1097Q785 1189 720 1273T568 1420L451
1262L302 1361L424 1519Q323 1581 220 1611L273 1787Q363 1761 427 1736T549 1680Q584 1726 623 1780T674 1852L826 1752Q815 1737 777 1688T703 1595Q857 1508 973 1361ZM726 202T778 245T861 373T892 574Q892 740 886 816Q859 862 799 897T660 932Q585 932 531
887T448 755T419 547Q419 379 482 291T660 202Q726 202 778 245Z" />
<glyph unicode="&#xf1;" glyph-name="ntilde" horiz-adv-x="1352" d="M457 1140L463 1018Q532 1070 635 1113T834 1159Q957 1163 1035 1121T1151 980T1190 715V0H878V648Q878 745 863 798T812 875T710 896Q660 895 597 873T486 809V0H174V1140H457ZM350 1572T428
1635T616 1698Q680 1698 720 1678T803 1621Q835 1594 857 1581T910 1568Q955 1568 992 1599T1065 1679L1191 1571Q1155 1467 1080 1405T893 1343Q835 1343 798 1362T716 1418Q679 1448 654 1462T594 1476Q555 1476 515 1446T440 1374L315 1472Q350 1572 428 1635Z"
/>
<glyph unicode="&#xf2;" glyph-name="ograve" horiz-adv-x="1302" d="M96 764T168 893T368 1089T662 1156Q851 1156 973 1077T1150 864T1206 562Q1206 378 1134 248T934 51T641 -16Q451 -16 329 64T152 278T96 581Q96 764 168 893ZM883 721T826 827T653 934Q419
934 419 586Q419 481 443 395T520 256T652 204Q883 204 883 561Q883 721 826 827ZM586 1272T500 1338T335 1485T225 1633L440 1807Q501 1703 596 1587T781 1388L632 1251Q586 1272 500 1338Z" />
<glyph unicode="&#xf3;" glyph-name="oacute" horiz-adv-x="1302" d="M617 1472T706 1580T868 1807L1082 1633Q1055 1570 976 1488T808 1338T676 1251L527 1388Q617 1472 706 1580ZM96 764T168 893T368 1089T662 1156Q851 1156 973 1077T1150 864T1206 562Q1206
378 1134 248T934 51T641 -16Q451 -16 329 64T152 278T96 581Q96 764 168 893ZM883 721T826 827T653 934Q419 934 419 586Q419 481 443 395T520 256T652 204Q883 204 883 561Q883 721 826 827Z" />
<glyph unicode="&#xf4;" glyph-name="ocircumflex" horiz-adv-x="1302" d="M551 1698H774L1057 1326L896 1236L663 1482L421 1236L265 1325L551 1698ZM96 764T168 893T368 1089T662 1156Q851 1156 973 1077T1150 864T1206 562Q1206 378 1134 248T934 51T641 -16Q451
-16 329 64T152 278T96 581Q96 764 168 893ZM883 721T826 827T653 934Q419 934 419 586Q419 481 443 395T520 256T652 204Q883 204 883 561Q883 721 826 827Z" />
<glyph unicode="&#xf5;" glyph-name="otilde" horiz-adv-x="1302" d="M96 764T168 893T368 1089T662 1156Q851 1156 973 1077T1150 864T1206 562Q1206 378 1134 248T934 51T641 -16Q451 -16 329 64T152 278T96 581Q96 764 168 893ZM883 721T826 827T653 934Q419
934 419 586Q419 481 443 395T520 256T652 204Q883 204 883 561Q883 721 826 827ZM249 1572T327 1635T515 1698Q579 1698 619 1678T702 1621Q734 1594 756 1581T809 1568Q854 1568 891 1599T964 1679L1090 1571Q1054 1467 979 1405T792 1343Q734 1343 697 1362T615
1418Q578 1448 553 1462T493 1476Q454 1476 414 1446T339 1374L214 1472Q249 1572 327 1635Z" />
<glyph unicode="&#xf6;" glyph-name="odieresis" horiz-adv-x="1302" d="M243 1526T268 1568T335 1636T428 1662Q508 1662 550 1616T592 1494Q592 1444 568 1402T502 1334T409 1309Q334 1309 289 1356T243 1477Q243 1526 268 1568ZM728 1526T753 1568T820 1636T913
1662Q993 1662 1035 1616T1077 1494Q1077 1444 1053 1402T987 1334T894 1309Q819 1309 774 1356T728 1477Q728 1526 753 1568ZM96 764T168 893T368 1089T662 1156Q851 1156 973 1077T1150 864T1206 562Q1206 378 1134 248T934 51T641 -16Q451 -16 329 64T152 278T96
581Q96 764 168 893ZM883 721T826 827T653 934Q419 934 419 586Q419 481 443 395T520 256T652 204Q883 204 883 561Q883 721 826 827Z" />
<glyph unicode="&#xf7;" glyph-name="divide" horiz-adv-x="1403" d="M527 1268T555 1315T630 1390T732 1419Q818 1419 867 1367T916 1232Q916 1176 889 1129T814 1053T712 1025Q659 1025 617 1049T551 1116T527 1213Q527 1268 555 1315ZM1200 889V655H203V889H1200ZM523
380T551 427T627 502T729 531Q814 531 863 479T912 344Q912 288 885 241T810 165T708 137Q655 137 613 161T547 228T523 325Q523 380 551 427Z" />
<glyph unicode="&#xf8;" glyph-name="oslash" horiz-adv-x="1302" d="M1064 1044T1136 894T1206 546Q1204 367 1131 241T931 49T641 -16Q576 -16 513 -5L437 -220L312 -188L390 32Q240 98 168 243T96 581Q96 764 168 893T368 1089T662 1156Q731 1156 785 1146L863
1367L988 1335L908 1110Q1064 1044 1136 894ZM419 500T435 426T485 300L707 927Q677 934 653 934Q419 934 419 586Q419 500 435 426ZM883 204T883 561Q883 647 866 721T815 846L590 213Q618 204 652 204Q883 204 883 561Z" />
<glyph unicode="&#xf9;" glyph-name="ugrave" horiz-adv-x="1326" d="M1152 1140V-16H946Q906 -16 888 -5T870 42V94Q805 48 712 16T537 -16Q381 -16 299 43T190 206T162 474V1140H474V477Q474 370 492 316T547 242T649 223Q699 223 755 244T840 288V1140H1152ZM600
1272T514 1338T349 1485T239 1633L454 1807Q515 1703 610 1587T795 1388L646 1251Q600 1272 514 1338Z" />
<glyph unicode="&#xfa;" glyph-name="uacute" horiz-adv-x="1326" d="M631 1472T720 1580T882 1807L1096 1633Q1069 1570 990 1488T822 1338T690 1251L541 1388Q631 1472 720 1580ZM1152 1140V-16H946Q906 -16 888 -5T870 42V94Q805 48 712 16T537 -16Q381 -16
299 43T190 206T162 474V1140H474V477Q474 370 492 316T547 242T649 223Q699 223 755 244T840 288V1140H1152Z" />
<glyph unicode="&#xfb;" glyph-name="ucircumflex" horiz-adv-x="1326" d="M565 1698H788L1071 1326L910 1236L677 1482L435 1236L279 1325L565 1698ZM1152 1140V-16H946Q906 -16 888 -5T870 42V94Q805 48 712 16T537 -16Q381 -16 299 43T190 206T162 474V1140H474V477Q474
370 492 316T547 242T649 223Q699 223 755 244T840 288V1140H1152Z" />
<glyph unicode="&#xfc;" glyph-name="udieresis" horiz-adv-x="1326" d="M257 1526T282 1568T349 1636T442 1662Q522 1662 564 1616T606 1494Q606 1444 582 1402T516 1334T423 1309Q348 1309 303 1356T257 1477Q257 1526 282 1568ZM742 1526T767 1568T834 1636T927
1662Q1007 1662 1049 1616T1091 1494Q1091 1444 1067 1402T1001 1334T908 1309Q833 1309 788 1356T742 1477Q742 1526 767 1568ZM1152 1140V-16H946Q906 -16 888 -5T870 42V94Q805 48 712 16T537 -16Q381 -16 299 43T190 206T162 474V1140H474V477Q474 370 492
316T547 242T649 223Q699 223 755 244T840 288V1140H1152Z" />
<glyph unicode="&#xfd;" glyph-name="yacute" horiz-adv-x="1188" d="M1162 1140L807 -30Q747 -226 647 -338T424 -486Q398 -494 348 -500T272 -507Q246 -507 187 -501T120 -488V-235Q138 -241 177 -248T233 -255Q304 -255 355 -242T457 -174T538 0H404L17 1140H355L528
531L611 202L688 531L827 1140H1162ZM569 1472T658 1580T820 1807L1034 1633Q1007 1570 928 1488T760 1338T628 1251L479 1388Q569 1472 658 1580Z" />
<glyph unicode="&#xfe;" glyph-name="thorn" horiz-adv-x="1340" d="M916 1156T1019 1096T1183 913T1245 612Q1245 425 1170 281T960 57T649 -23Q568 -23 482 -12L486 -169V-507H168V1661H480V1224L472 1036Q526 1087 602 1121T791 1156Q916 1156 1019 1096ZM918
776T861 849T695 923Q633 923 576 903T480 852V232Q516 193 656 193Q732 193 791 240T884 379T918 595Q918 776 861 849Z" />
<glyph unicode="&#xff;" glyph-name="ydieresis" horiz-adv-x="1188" d="M1162 1140L807 -30Q747 -226 647 -338T424 -486Q398 -494 348 -500T272 -507Q246 -507 187 -501T120 -488V-235Q138 -241 177 -248T233 -255Q304 -255 355 -242T457 -174T538 0H404L17
1140H355L528 531L611 202L688 531L827 1140H1162ZM195 1782T220 1824T287 1892T380 1918Q460 1918 502 1872T544 1750Q544 1700 520 1658T454 1590T361 1565Q286 1565 241 1612T195 1733Q195 1782 220 1824ZM680 1782T705 1824T772 1892T865 1918Q945 1918 987
1872T1029 1750Q1029 1700 1005 1658T939 1590T846 1565Q771 1565 726 1612T680 1733Q680 1782 705 1824Z" />
<glyph unicode="&#x2013;" glyph-name="endash" horiz-adv-x="1702" d="M1457 889V644H245V889H1457Z" />
<glyph unicode="&#x2014;" glyph-name="emdash" horiz-adv-x="2413" d="M2168 889V644H245V889H2168Z" />
<glyph unicode="&#x2018;" glyph-name="quoteleft" horiz-adv-x="560" d="M94 1397T128 1489T210 1643T298 1736L428 1653V1625Q397 1589 378 1510T358 1358Q358 1305 371 1258T406 1178T448 1135V1064L279 940Q229 958 187 1005T119 1125T94 1286Q94 1397 128 1489Z" />
<glyph unicode="&#x2019;" glyph-name="quoteright" horiz-adv-x="560" d="M114 1051Q145 1087 164 1166T183 1319Q183 1372 170 1419T135 1498T94 1541V1612L263 1736Q313 1718 355 1671T422 1551T448 1390Q448 1279 414 1187T332 1034T244 940L114 1023V1051Z" />
<glyph unicode="&#x201a;" glyph-name="quotesinglbase" horiz-adv-x="560" d="M114 -422Q145 -386 164 -307T183 -154Q183 -101 170 -54T135 25T94 68V139L263 263Q313 245 355 198T422 78T448 -83Q448 -194 414 -286T332 -439T244 -533L114 -450V-422Z" />
<glyph unicode="&#x201c;" glyph-name="quotedblleft" horiz-adv-x="1108" d="M94 1397T128 1489T210 1643T298 1736L428 1653V1625Q397 1589 378 1510T358 1358Q358 1305 371 1258T406 1178T448 1135V1064L279 940Q229 958 187 1005T119 1125T94 1286Q94 1397
128 1489ZM642 1397T676 1489T758 1643T846 1736L976 1653V1625Q945 1589 926 1510T906 1358Q906 1305 919 1258T954 1178T996 1135V1064L827 940Q777 958 735 1005T667 1125T642 1286Q642 1397 676 1489Z" />
<glyph unicode="&#x201d;" glyph-name="quotedblright" horiz-adv-x="1108" d="M114 1051Q145 1087 164 1166T183 1319Q183 1372 170 1419T135 1498T94 1541V1612L263 1736Q313 1718 355 1671T422 1551T448 1390Q448 1279 414 1187T332 1034T244 940L114 1023V1051ZM662
1051Q693 1087 712 1166T731 1319Q731 1372 718 1419T683 1498T642 1541V1612L811 1736Q861 1718 903 1671T970 1551T996 1390Q996 1279 962 1187T880 1034T792 940L662 1023V1051Z" />
<glyph unicode="&#x201e;" glyph-name="quotedblbase" horiz-adv-x="1108" d="M114 -410Q145 -374 164 -295T183 -142Q183 -89 170 -42T135 37T94 80V151L263 275Q313 257 355 210T422 90T448 -71Q448 -182 414 -274T332 -427T244 -521L114 -438V-410ZM662 -410Q693
-374 712 -295T731 -142Q731 -89 718 -42T683 37T642 80V151L811 275Q861 257 903 210T970 90T996 -71Q996 -182 962 -274T880 -427T792 -521L662 -438V-410Z" />
<glyph unicode="&#x2022;" glyph-name="bullet" horiz-adv-x="905" d="M187 792T225 855T327 957T464 995Q536 995 594 963T685 873T718 744Q718 671 681 607T580 505T443 467Q371 467 313 500T221 591T187 719Q187 792 225 855Z" />
<glyph unicode="&#x2039;" glyph-name="guilsinglleft" horiz-adv-x="1214" d="M535 615L966 290L891 76L235 492V735L891 1157L966 941L535 615Z" />
<glyph unicode="&#x203a;" glyph-name="guilsinglright" horiz-adv-x="1214" d="M969 735V492L313 76L238 290L669 615L238 941L313 1157L969 735Z" />
</font>
</defs>
</svg>
